• FILE "WYCZ - Bizarre (mix de l'album).flac" MP3
  • TRACK 01 AUDIO
  • TITLE "Symphony No. 13 in B-Flat Minor, Op. 113 "Babi Yar": III. In the Store. Adagio (Live)"
  • PERFORMER "Alexey Tikhomirov, Chicago Symphony Orchestra, Chicago Symphony Chorus & Riccardo MutiĀ "
  • INDEX 01 00:00:00
  • TRACK 02 AUDIO
  • TITLE "Page Blanche (original mix)"
  • PERFORMER "WYCZ"
  • INDEX 01 06:52:00
  • TRACK 03 AUDIO
  • TITLE "Page Blanche (SRVTR mix)"
  • PERFORMER "WYCZ"
  • INDEX 01 15:28:00
  • TRACK 04 AUDIO
  • TITLE "Page Blanche (MUWN mix)"
  • PERFORMER "WYCZ"
  • INDEX 01 21:29:00
  • TRACK 05 AUDIO
  • TITLE "Nouvelle Page Blanche"
  • PERFORMER "WYCZ"
  • INDEX 01 24:54:00
  • TRACK 06 AUDIO
  • TITLE "Page Blanche (YANN PILLAS mix)"
  • PERFORMER "WYCZ"
  • INDEX 01 32:46:00
  • TRACK 07 AUDIO
  • TITLE "ASCII85"
  • PERFORMER "WYCZ feat. Bunker Palace & M.Nomized"
  • INDEX 01 36:36:00
  • TRACK 08 AUDIO
  • TITLE "Paranoide Est Ma Drogue"
  • PERFORMER "WYCZ"
  • INDEX 01 42:49:00
  • TRACK 09 AUDIO
  • TITLE "Ceci S'appelle Du Breakcore"
  • PERFORMER "WYCZ"
  • INDEX 01 45:25:00
  • TRACK 10 AUDIO
  • TITLE "ASCII85"
  • PERFORMER "WYCZ feat. Bunker Palace & M.Nomized"
  • INDEX 01 45:34:00
  • TRACK 11 AUDIO
  • TITLE "Animalisme Perpendiculaire"
  • PERFORMER "WYCZ"
  • INDEX 01 47:17:00
  • TRACK 12 AUDIO
  • TITLE "Bruxelles"
  • PERFORMER "WYCZ feat. SRVTR"
  • INDEX 01 51:57:00
  • *
    Experimental
    • 94 bpm
    • Key: Abm
    Full Link
    Short Link (Twitter)