• djtakis
    Killing Music #89 "World is a small word"

    1:01:27
    Killing Music #89 "World is a small word" by djtakis
    5 2
    Repost
  • Add a comment

20/02/2020

TITLE "KM #89 World is a small word"
FILE "KM #89 World is a small word.mp3" WAVE
TRACK 01 AUDIO
TITLE "What Shall I Tell My Children Who Are Black (Dr. Margaret Burroughs)"
PERFORMER "Angel Bat Dawid"
INDEX 01 00:00:00
TRACK 02 AUDIO
TITLE "Toichin Bushi (Afro·funk)"
PERFORMER "Minyo Crusaders"
INDEX 01 03:18:41
TRACK 03 AUDIO
TITLE "Boaty Cruisy (Ate Trak Remix)"
PERFORMER "Dowdelin"
INDEX 01 08:53:08
TRACK 04 AUDIO
TITLE "Kon'ko Man"
PERFORMER "Madala Kunene"
INDEX 01 11:46:63
TRACK 05 AUDIO
TITLE "Sada (Echo)"
PERFORMER "Nomagik"
INDEX 01 15:51:31
TRACK 06 AUDIO
TITLE "Mucagiami"
PERFORMER "Guts"
INDEX 01 19:51:15
TRACK 07 AUDIO
TITLE "Marombo (Part Ii)"
PERFORMER "Gerardo Frisina"
INDEX 01 23:34:56
TRACK 08 AUDIO
TITLE "Yardley Suite"
PERFORMER "Ruby Rushton"
INDEX 01 30:03:49
TRACK 09 AUDIO
TITLE "Hey Hey Ft Albert Palacios"
PERFORMER "Beat Bronco Organ Trio"
INDEX 01 33:54:11
TRACK 10 AUDIO
TITLE "Smash & Grab"
PERFORMER "Jungle Fire"
INDEX 01 36:37:62
TRACK 11 AUDIO
TITLE "Atsan At?lmaz Satsan Sat?lmaz"
PERFORMER "Cherry Bandora"
INDEX 01 39:49:71
TRACK 12 AUDIO
TITLE "The Egyptian"
PERFORMER "Baharat"
INDEX 01 42:50:54
TRACK 13 AUDIO
TITLE "Blue Universe (Aoi Sekai)"
PERFORMER "Sababa 5 (Ft Yurika)"
INDEX 01 46:30:56
TRACK 14 AUDIO
TITLE "Juancho Y Adrian"
PERFORMER "Los Gaiteros De San Jacinto"
INDEX 01 50:56:53
TRACK 15 AUDIO
TITLE "Desde Aqui"
PERFORMER "Ile"
INDEX 01 54:44:27
TRACK 16 AUDIO
TITLE "Melo Do Centro Da Terra (Ft Lourimbau)"
PERFORMER "Baianasystem"
INDEX 01 57:33:37
TRACK 17 AUDIO
TITLE "Sulphur-Bottom Lament (Plankton Song)"
PERFORMER "Seas Of Mirth"
INDEX 01 59:20:01

    World, cassette, toloradio
    Full Link
    Short Link (Twitter)