• djtakis
    Killing Music #118 "Just Before Midnight"

    1:33:40
    Killing Music #118 "Just Before Midnight" by djtakis
    12 5
    Repost
  • Add a comment

TITLE "KM #118 Just Before Midnight"
FILE "KM #118 Just Before Midnight.mp3" WAVE
TRACK 01 AUDIO
TITLE "City Bleus"
PERFORMER "Leong Lau"
INDEX 01 00:00:00
TRACK 02 AUDIO
TITLE "Dibwe Diambula Kabanda"
PERFORMER "Les Troubadours Du Roi Baudouin"
INDEX 01 03:07:63
TRACK 03 AUDIO
TITLE "Deni Kemba"
PERFORMER "Victor Deme"
INDEX 01 06:07:40
TRACK 04 AUDIO
TITLE "Samba Geladio"
PERFORMER "Ali Farka Toure & Toumani Diabate"
INDEX 01 09:31:00
TRACK 05 AUDIO
TITLE "When Will I See You Again?"
PERFORMER "Idris Ackamoor, The Pyramids"
INDEX 01 12:41:63
TRACK 06 AUDIO
TITLE "Troubles & Worries"
PERFORMER "Mungo's Hi Fi X Marina P"
INDEX 01 20:30:32
TRACK 07 AUDIO
TITLE "El Baile Del Kkoyaruna"
PERFORMER "Pascuala Ilabaca Y Fauna"
INDEX 01 24:27:02
TRACK 08 AUDIO
TITLE "Baldomero"
PERFORMER "Romperayo"
INDEX 01 29:08:19
TRACK 09 AUDIO
TITLE "Dub4me"
PERFORMER "Soap Kills"
INDEX 01 32:09:21
TRACK 10 AUDIO
TITLE "Voo Doo"
PERFORMER "The Neville Brothers"
INDEX 01 34:39:56
TRACK 11 AUDIO
TITLE "Namm Naa Leen"
PERFORMER "Yoro Ndiaye"
INDEX 01 39:01:33
TRACK 12 AUDIO
TITLE "Tumhaari Maya"
PERFORMER "Prem Joshua & Chintan"
INDEX 01 42:31:34
TRACK 13 AUDIO
TITLE "Viens Habibi"
PERFORMER "Cheb Mami"
INDEX 01 47:55:07
TRACK 14 AUDIO
TITLE "Arhil"
PERFORMER "Idrissi, Bahia El"
INDEX 01 51:31:45
TRACK 15 AUDIO
TITLE "Mr Moon"
PERFORMER "Headless Chickens"
INDEX 01 54:42:35
TRACK 16 AUDIO
TITLE "I Got The Blues"
PERFORMER "Otis Rush"
INDEX 01 59:10:54
TRACK 17 AUDIO
TITLE "Death Letter (Organized Noize Remix)"
PERFORMER "Johnny Farmer"
INDEX 01 63:54:61
TRACK 18 AUDIO
TITLE "Καλημέρα Κ Καλησπέρα"
PERFORMER "Χιροσιγμα"
INDEX 01 67:29:13
TRACK 19 AUDIO
TITLE "Jacob's Ladder"
PERFORMER "Chumbawamba"
INDEX 01 70:50:56
TRACK 20 AUDIO
TITLE "Lili S'en Fout"
PERFORMER "Farroukh, Toufic Ft. Yasmine Hamdam"
INDEX 01 74:08:59
TRACK 21 AUDIO
TITLE "Akua Tuta"
PERFORMER "Kashtin"
INDEX 01 81:00:62
TRACK 22 AUDIO
TITLE "Rang Diya"
PERFORMER "Niraj Chag (Ft Japjit Kaur)"
INDEX 01 85:52:10
TRACK 23 AUDIO
TITLE "A Night In Lenasia"
PERFORMER "Deepak Ram"
INDEX 01 89:29:25

Translate this for me please

    World, #downtempo, #trip-hop, #beats, #blues, #jazz, #toloradio, #raspberry
    Full Link
    Short Link (Twitter)
    Download Video Preview for sharing