• djtakis
    KM #115 Arizona vs Sahara

    1:04:19
    KM #115 Arizona vs Sahara by djtakis
    11 1
    Repost
  • Add a comment

TITLE "KM #115 Arizona vs Sahara"
FILE "KM #115 Arizona vs Sahara.mp3" WAVE
TRACK 01 AUDIO
TITLE "Worry"
PERFORMER "Songhoy Blues"
INDEX 01 00:00:00
TRACK 02 AUDIO
TITLE "Moonlight Africa"
PERFORMER "Edikanfo"
INDEX 01 03:03:12
TRACK 03 AUDIO
TITLE "Boogaloo Arizona"
PERFORMER "Orkesta Mendoza"
INDEX 01 08:34:57
TRACK 04 AUDIO
TITLE "Pista (Great Start)"
PERFORMER "Los Bitchos"
INDEX 01 10:37:16
TRACK 05 AUDIO
TITLE "Lal Mere"
PERFORMER "Lokkhi Terra"
INDEX 01 13:48:61
TRACK 06 AUDIO
TITLE "Addis To London Ft Mulatu Astatke"
PERFORMER "Nubiyan Twist"
INDEX 01 19:09:68
TRACK 07 AUDIO
TITLE "Baraka"
PERFORMER "Aziza Brahim"
INDEX 01 25:35:08
TRACK 08 AUDIO
TITLE "Todos Tenemos Hogar"
PERFORMER "Los Piranas"
INDEX 01 29:20:46
TRACK 09 AUDIO
TITLE "Wanderlust"
PERFORMER "Tootard"
INDEX 01 32:56:03
TRACK 10 AUDIO
TITLE "Funky Egal"
PERFORMER "Zenobia"
INDEX 01 36:07:06
TRACK 11 AUDIO
TITLE "No Love"
PERFORMER "Skip Marley"
INDEX 01 39:25:23
TRACK 12 AUDIO
TITLE "Las Huellas"
PERFORMER "Aziza Brahim"
INDEX 01 41:57:71
TRACK 13 AUDIO
TITLE "Cuidei Que Tinha Morrido"
PERFORMER "Lina Raul Refree"
INDEX 01 45:42:29
TRACK 14 AUDIO
TITLE "Invisible Door"
PERFORMER "Trupa Trupa"
INDEX 01 50:27:73
TRACK 15 AUDIO
TITLE "Seventeen Small Chinese Guys"
PERFORMER "Matao With Atilla Engin"
INDEX 01 52:45:18
TRACK 16 AUDIO
TITLE "Tumi Eshechile Porshu"
PERFORMER "Lokkhi Terra"
INDEX 01 58:55:71
TRACK 17 AUDIO
TITLE "Goodbye"
PERFORMER "Fra Fra"
INDEX 01 64:02:14

    World, Afro, Afro Latino, Afrojazz, Nu Cumbia, toloradio
    Full Link
    Short Link (Twitter)