• djtakis
    Killing Music #114 "Nice Tan"

    1:33:42
    Killing Music #114 "Nice Tan" by djtakis
    5 1
    Repost
  • Add a comment

TITLE "KM #114 Nice Tan"
FILE "KM #114 Nice Tan.mp3" WAVE
TRACK 01 AUDIO
TITLE "You Are Enough"
PERFORMER "Ron Gallo"
INDEX 01 00:00:00
TRACK 02 AUDIO
TITLE "For The People In The Back"
PERFORMER "Role Model"
INDEX 01 02:46:55
TRACK 03 AUDIO
TITLE "Extended Present"
PERFORMER "Harvey Causon"
INDEX 01 05:15:29
TRACK 04 AUDIO
TITLE "Pleasantville"
PERFORMER "Jozzy"
INDEX 01 09:26:05
TRACK 05 AUDIO
TITLE "I Got My Whole"
PERFORMER "Tebi Rex"
INDEX 01 11:56:27
TRACK 06 AUDIO
TITLE "Candy"
PERFORMER "Max Pope"
INDEX 01 15:37:72
TRACK 07 AUDIO
TITLE "Mercy"
PERFORMER "Joy Oladokun"
INDEX 01 19:11:58
TRACK 08 AUDIO
TITLE "No Use"
PERFORMER "Christian Leave"
INDEX 01 22:45:38
TRACK 09 AUDIO
TITLE "Airplane Mode"
PERFORMER "Marlon Craft"
INDEX 01 26:00:21
TRACK 10 AUDIO
TITLE "Mister Holland"
PERFORMER "Gregory Porter"
INDEX 01 28:47:21
TRACK 11 AUDIO
TITLE "Control"
PERFORMER "Luwten"
INDEX 01 32:05:17
TRACK 12 AUDIO
TITLE "Feel Good"
PERFORMER "Polo & Pan"
INDEX 01 35:55:03
TRACK 13 AUDIO
TITLE "We Are"
PERFORMER "Jon Batiste"
INDEX 01 39:48:02
TRACK 14 AUDIO
TITLE "Grounds"
PERFORMER "Idles"
INDEX 01 43:59:09
TRACK 15 AUDIO
TITLE "Mr. Motivator"
PERFORMER "Idles"
INDEX 01 47:15:47
TRACK 16 AUDIO
TITLE "Breakup Breakfast"
PERFORMER "Mathilda Homer"
INDEX 01 50:28:29
TRACK 17 AUDIO
TITLE "Lay Low"
PERFORMER "Nick De La Hoyde"
INDEX 01 53:15:59
TRACK 18 AUDIO
TITLE "Confirmation (Ssbd)"
PERFORMER "Westerman"
INDEX 01 55:32:48
TRACK 19 AUDIO
TITLE "Sending Me Ur Loving (Tom Trago Remix)"
PERFORMER "The Jungle Giants"
INDEX 01 59:47:53
TRACK 20 AUDIO
TITLE "Gravity (Ft Ry X) (Jacques Greene Remix)"
PERFORMER "Nocturnal Sunshine"
INDEX 01 64:09:15
TRACK 21 AUDIO
TITLE "Just Me"
PERFORMER "Josie Man"
INDEX 01 69:28:01
TRACK 22 AUDIO
TITLE "Summer"
PERFORMER "Simpson"
INDEX 01 73:17:45
TRACK 23 AUDIO
TITLE "Hold Me Like You Wanna"
PERFORMER "Somebody's Child"
INDEX 01 77:17:73
TRACK 24 AUDIO
TITLE "I Can't Breathe"
PERFORMER "H.e.r."
INDEX 01 81:11:40
TRACK 25 AUDIO
TITLE "Yaya My Favorite"
PERFORMER "Duendita"
INDEX 01 85:53:72
TRACK 26 AUDIO
TITLE "All At Once"
PERFORMER "Half Moon Run"
INDEX 01 87:29:33
TRACK 27 AUDIO
TITLE "I Remember Everything"
PERFORMER "John Prine"
INDEX 01 91:00:45

    Pop, indie pop, Pop Rock, Electronic, toloradio
    Full Link
    Short Link (Twitter)