• djtakis
    Killing Music #113 "GSwing's 45s GR #01"

    1:33:13
    Killing Music #113 "GSwing's 45s GR #01" by djtakis
    12 3
    Repost
  • Add a comment

TITLE "KM #113 GSwing's 45s GR #01"
FILE "KM #113 GSwing's 45s GR #01.mp3" WAVE
TRACK 01 AUDIO
TITLE "Mom"
PERFORMER "Abbie Gale"
INDEX 01 00:00:00
TRACK 02 AUDIO
TITLE "Off The Rack"
PERFORMER "Berlin Brides"
INDEX 01 03:14:59
TRACK 03 AUDIO
TITLE "I Speak Your Words (Rough Edit)"
PERFORMER "B-Sides"
INDEX 01 05:39:09
TRACK 04 AUDIO
TITLE "Berlin (Radio Edit)"
PERFORMER "Film"
INDEX 01 09:39:34
TRACK 05 AUDIO
TITLE "Boom Boom A Zoom Zoom"
PERFORMER "Bob Urh & The Barebones"
INDEX 01 13:33:42
TRACK 06 AUDIO
TITLE "Had Enough Of Your Lies"
PERFORMER "Garage Gods"
INDEX 01 16:36:24
TRACK 07 AUDIO
TITLE "She Don't Love You Anymore"
PERFORMER "Garage Gods"
INDEX 01 18:38:40
TRACK 08 AUDIO
TITLE "By Midnight"
PERFORMER "Jacks"
INDEX 01 21:43:17
TRACK 09 AUDIO
TITLE "Motorcycle Girl"
PERFORMER "Jacks"
INDEX 01 24:02:28
TRACK 10 AUDIO
TITLE "Baby"
PERFORMER "Jacks"
INDEX 01 26:24:41
TRACK 11 AUDIO
TITLE "Blackula"
PERFORMER "Jacks"
INDEX 01 28:25:18
TRACK 12 AUDIO
TITLE "Let Me Down"
PERFORMER "Sixty Second Swingers"
INDEX 01 30:31:67
TRACK 13 AUDIO
TITLE "I Got Something"
PERFORMER "Sixty Second Swingers"
INDEX 01 33:06:32
TRACK 14 AUDIO
TITLE "On My Way"
PERFORMER "Sixty Second Swingers"
INDEX 01 36:01:70
TRACK 15 AUDIO
TITLE "Heart Of Stone"
PERFORMER "The Basements"
INDEX 01 38:19:06
TRACK 16 AUDIO
TITLE "Shame On You"
PERFORMER "The Basements"
INDEX 01 41:40:32
TRACK 17 AUDIO
TITLE "Always Satisfyed"
PERFORMER "The Basements"
INDEX 01 44:15:51
TRACK 18 AUDIO
TITLE "I Wanna Leave You"
PERFORMER "The Basements"
INDEX 01 46:41:71
TRACK 19 AUDIO
TITLE "Banana Boats"
PERFORMER "The Nackers"
INDEX 01 50:58:54
TRACK 20 AUDIO
TITLE "She's A Birrova Trump"
PERFORMER "The Nackers"
INDEX 01 53:11:07
TRACK 21 AUDIO
TITLE "Mary Jane"
PERFORMER "The Royal Hangmen"
INDEX 01 55:02:24
TRACK 22 AUDIO
TITLE "You Better Tell That Girl"
PERFORMER "The Royal Hangmen"
INDEX 01 58:09:08
TRACK 23 AUDIO
TITLE "Confussion"
PERFORMER "The Snails"
INDEX 01 61:30:66
TRACK 24 AUDIO
TITLE "Heartbreaker"
PERFORMER "The Snails"
INDEX 01 65:08:48
TRACK 25 AUDIO
TITLE "Decadence"
PERFORMER "The Snails"
INDEX 01 67:40:13
TRACK 26 AUDIO
TITLE "Won't Let You Go"
PERFORMER "The Snails"
INDEX 01 70:27:66
TRACK 27 AUDIO
TITLE "Your Side Of Town"
PERFORMER "The Dolly Rocker Movement"
INDEX 01 74:23:25
TRACK 28 AUDIO
TITLE "Silently We Sung"
PERFORMER "The Dolly Rocker Movement"
INDEX 01 78:01:70
TRACK 29 AUDIO
TITLE "Girl Of The 13th Hour"
PERFORMER "The Dolly Rocker Movement"
INDEX 01 80:34:32
TRACK 30 AUDIO
TITLE "Can't Take No More"
PERFORMER "The Way-Outs"
INDEX 01 83:07:34
TRACK 31 AUDIO
TITLE "I'll Walk Away"
PERFORMER "The Way-Outs"
INDEX 01 85:13:20
TRACK 32 AUDIO
TITLE "Απειλή"
PERFORMER "Ausschwitss"
INDEX 01 87:10:22
TRACK 33 AUDIO
TITLE "Χαμένο Κορμί"
PERFORMER "Ausschwitss"
INDEX 01 90:48:15

    Garage, psych rock, darkwave, Alternative Rock, indie rock, toloradio, greek, synthwave
    Full Link
    Short Link (Twitter)