• djtakis
    KM #112 State Of The Union

    1:31:25
    KM #112 State Of The Union by djtakis
    6 2
    Repost
  • Add a comment

TITLE "KM #112 State Of The Union"
FILE "KM #112 State Of The Union.mp3" WAVE
TRACK 01 AUDIO
TITLE "State Of The Union (Stfu) (Main)"
PERFORMER "Public Enemy"
INDEX 01 00:00:00
TRACK 02 AUDIO
TITLE "Elephants"
PERFORMER "The Snuts"
INDEX 01 02:55:65
TRACK 03 AUDIO
TITLE "Dive"
PERFORMER "Barq"
INDEX 01 06:16:00
TRACK 04 AUDIO
TITLE "Song Machine Friday 13th (Ft Octavian)"
PERFORMER "Gorillaz"
INDEX 01 09:44:29
TRACK 05 AUDIO
TITLE "Son Of A Gun"
PERFORMER "Jordan Stephens"
INDEX 01 13:16:57
TRACK 06 AUDIO
TITLE "No Song Without You"
PERFORMER "Honne"
INDEX 01 17:42:15
TRACK 07 AUDIO
TITLE "Atma"
PERFORMER "Karthik"
INDEX 01 20:21:72
TRACK 08 AUDIO
TITLE "I Want You"
PERFORMER "Aka George"
INDEX 01 25:19:51
TRACK 09 AUDIO
TITLE "Fall Please"
PERFORMER "Tricky"
INDEX 01 28:40:24
TRACK 10 AUDIO
TITLE "Quotations For Locations"
PERFORMER "Drug Store Romeos"
INDEX 01 31:03:71
TRACK 11 AUDIO
TITLE "Rose Rouge"
PERFORMER "Jorja Smith"
INDEX 01 34:37:58
TRACK 12 AUDIO
TITLE "One More Rush"
PERFORMER "Baril"
INDEX 01 40:27:34
TRACK 13 AUDIO
TITLE "Esplanade"
PERFORMER "Pierce Fulton"
INDEX 01 45:32:74
TRACK 14 AUDIO
TITLE "Happiness (Child Of The 90's Extended Remix)"
PERFORMER "Wand"
INDEX 01 50:14:71
TRACK 15 AUDIO
TITLE "Let’s Just"
PERFORMER "Tommy Farrow"
INDEX 01 54:41:56
TRACK 16 AUDIO
TITLE "Sunglasses At The Wedding"
PERFORMER "Rolling Blackouts Coastal Fever"
INDEX 01 57:42:04
TRACK 17 AUDIO
TITLE "I'm Alive"
PERFORMER "Norah Jones"
INDEX 01 61:12:24
TRACK 18 AUDIO
TITLE "It's Alright"
PERFORMER "Feiertag"
INDEX 01 65:22:23
TRACK 19 AUDIO
TITLE "I Don't Belong"
PERFORMER "Fontaines D.c."
INDEX 01 68:35:63
TRACK 20 AUDIO
TITLE "These Drugs Aren't Working"
PERFORMER "Dougie Poole"
INDEX 01 73:01:28
TRACK 21 AUDIO
TITLE "Lonely Boy"
PERFORMER "Becca Mancari"
INDEX 01 78:09:10
TRACK 22 AUDIO
TITLE "A Ghost"
PERFORMER "Travis"
INDEX 01 80:17:13
TRACK 23 AUDIO
TITLE "Dark Days"
PERFORMER "Glue70"
INDEX 01 83:56:25
TRACK 24 AUDIO
TITLE "One & Done"
PERFORMER "Bright Eyes"
INDEX 01 86:35:12

    Indie, indie pop, alternative rock, Electronica, toloradio
    Full Link
    Short Link (Twitter)